#TITLE:Away;
#SUBTITLE:Initiate;
#ARTIST:I the Tri top's ft.Jace;
#TITLETRANSLIT:;
#SUBTITLETRANSLIT:;
#ARTISTTRANSLIT:;
#CREDIT:;
#BANNER:away-bn.png;
#BACKGROUND:;
#LYRICSPATH:;
#CDTITLE:cdtitle.png;
#MUSIC:away.ogg;
#OFFSET:0.060;
#SAMPLESTART:100.000;
#SAMPLELENGTH:12.000;
#SELECTABLE:YES;
#DISPLAYBPM:128.000;
#BPMS:0.000=128.000,118.000=64.000,132.000=-64.000,134.000=64.000,136.000=64.000,138.000=128.000,250.000=-64.000,258.000=64.000;
#STOPS:;
#BGCHANGES:;
// cache tags:
#FIRSTBEAT:0.000;
#LASTBEAT:274.000;
#SONGFILENAME:Songs/Initiate/away/away.sm;
#HASMUSIC:1;
#HASBANNER:1;
#MUSICLENGTH:131.368;
// end cache tags

//---------------dance-single - ----------------
#NOTES:
     dance-single:
     :
     Hard:
     8:
     1.000,1.000,1.000,0.723,0.552,549.000,347.000,95.000,86.000,122.000:
1001
0110
0000
0000
0110
1001
0000
0000
1010
0101
1010
0101
2020
0000
3030
0000
,
1010
0101
1010
0101
1010
0000
0000
0000
1100
0000
0011
0000
1100
0000
0101
0000
,
1100
0000
0110
0000
0101
0000
1000
0001
1100
0000
0020
0000
0101
0000
1231
0000
,
0000
0000
0310
0000
1001
0000
0010
0001
1100
0000
0101
0000
0011
0000
1010
0000
,
0110
1001
0011
0211
2311
3020
0131
1012
,
0000
0000
1000
0000
1103
0000
0010
0001
1210
0000
0010
0000
1001
0000
2311
0000
,
3020
0100
0131
0100
1010
0110
1010
0011
,
0101
1000
0101
2010
0101
3112
1010
1103
,
0000
0100
0101
0100
0112
1013
1121
1132
,
1110
0000
1103
0000
1101
0001
1010
0001
0110
0000
1010
0000
0101
0000
1010
0000
,
1100
0001
0011
0100
1010
2000
0101
3121
,
0000
0000
0131
0000
0011
0000
0010
1000
0101
0000
1100
0000
1010
0000
0101
0000
,
0101
0010
1102
0023
0101
2030
0101
3011
,
0200
0000
1000
0000
0321
0000
2130
0001
0110
0000
3002
0000
1100
0003
0110
0000
,
0200
0000
0001
0300
1021
0000
0201
0030
1311
0000
0000
0000
0000
0000
0000
0000
,
1111
0000
0000
0000
0110
0100
1010
0001
,
0011
1000
0010
1000
0110
0000
0120
0000
1132
0000
0103
1000
0101
0000
0001
1000
,
0110
1000
0001
1000
0110
0000
1000
0001
1100
0000
1000
0001
0110
1000
0001
1000
,
0110
1000
0010
1000
0121
0000
2130
0000
3110
0000
0100
0000
1100
0010
0001
1000
,
0110
1000
0001
1000
0101
1000
0001
1000
0121
0000
1032
0000
2113
0000
3010
0000
,
1100
0000
0001
0010
1100
0000
0010
0000
2001
0000
3201
0000
2301
0000
3001
0000
,
1001
0000
0000
0000
0200
0000
2300
0000
3021
0000
0000
0000
0000
0030
0000
0000
1001
0000
0010
0000
0101
0000
1000
0000
0101
0000
0010
0000
1000
0000
0100
0000
,
1010
0001
1100
0010
0101
1000
0100
0010
0111
1000
0011
1000
0111
1000
0011
1000
,
0111
1000
0001
1000
0201
2300
3021
0130
1001
0000
0011
0000
1100
0000
0101
0000
,
1100
0000
0110
0000
0101
0000
1000
0010
1100
0000
0120
0000
1001
0000
1231
0000
,
0000
0000
0310
0000
1001
0000
0010
0001
1100
0000
0101
0000
0011
0000
1010
0000
,
0110
1001
0011
0200
0011
0320
0101
1031
,
0200
0000
0001
0300
2110
0000
3102
0010
1103
0000
0200
0000
0011
0000
1301
0000
,
0002
0000
0100
0003
1210
0000
2301
0010
3101
0000
0000
0000
0000
0000
0000
0000
,
1211
0000
0000
0000
0000
0000
0000
0000
1301
0000
0001
0000
0001
0010
0001
0010
,
1001
0000
0001
0000
0001
0010
0001
0010
1001
0000
0001
0000
0001
0010
0001
0010
,
1001
0000
0001
0000
1001
0010
0001
0010
1001
0000
0110
1001
0000
1001
0100
1001
,
1001
0000
1001
0110
0000
1001
0000
0110
1010
0101
1010
0101
0101
1010
0101
1010
,
0000
MM00
00MM
0000
MM00
0000
00MM
0000
MM00
0000
00MM
0000
0000
0000
0000
0000
00MM
0000
MM00
0000
00MM
0000
MM00
0000
00MM
0000
0000
0000
M00M
0000
0000
0000
0MM0
0000
0000
0000
0000
0000
0000
0000
0000
0000
0000
0000
0000
0000
0000
0000
0000
0000
0000
0000
0000
0000
0000
0000
0000
0000
0000
0000
0000
0000
0000
0000
,
1100
0011
1100
0011
1100
0000
0000
0000
0011
1100
0011
1100
0011
0000
1001
0000
0110
0000
0000
0000
0011
0000
0000
0000
1100
0000
0000
0000
0101
0000
0000
0000
,
1100
0110
1001
1010
1100
0020
1001
1231
,
0000
0000
0310
0000
1001
0000
0010
0100
1010
0000
0101
0000
0011
0000
1010
0000
,
0110
0000
1001
0000
0201
0000
0010
0001
1301
0000
0100
0020
0000
0000
1032
0000
,
0110
0000
1000
0000
1103
0000
0010
0001
1100
0000
0001
0000
1201
0000
2310
0000
,
3121
0000
0000
0000
0131
0000
0100
0100
1010
0000
0110
0000
1010
0000
0011
0000
,
0101
0000
0000
0000
0000
0000
0000
0000
0000
0000
0000
0000
0000
0000
0000
0000
0000
0000
0000
0000
0000
0000
0000
0000
1000
0000
0000
0000
0000
0000
0000
0000
0000
0000
0000
0000
0000
0000
0000
0000
0000
0000
0000
0000
0000
0000
0000
0000
0101
0000
0000
0000
0000
0000
0000
0000
0000
0000
0000
0000
0000
0000
0000
0000
0000
0000
0000
0000
0000
0000
0000
0000
2010
0000
0000
0000
0000
0000
0000
0000
0000
0000
0000
0000
0010
0000
0000
0000
0000
0000
0000
0000
0000
0000
0000
0000
0101
3000
0000
0000
0000
0000
0000
0000
0000
0000
0000
0000
0000
0000
0000
0000
0000
0000
0000
0000
0000
0000
0000
0000
0000
0000
0000
0000
0000
0000
0000
0000
0000
0000
0000
0000
0000
0000
0000
0000
0000
0000
0000
0000
0000
0000
0000
0000
0101
0000
0000
0000
0000
0000
0000
0000
0000
0000
0000
0000
0000
0000
0000
0000
0000
0000
0000
0000
0000
0000
0000
0000
1010
0000
0000
0000
0000
0000
0000
0000
0000
0000
0000
0000
0000
0000
0000
0000
0000
0000
0000
0000
0000
0000
0000
0000
,
0000
1000
1001
0100
1011
0101
1011
0101
,
1011
0000
0100
0000
1010
0000
0100
0010
0101
0000
1000
0000
1010
0000
0100
0000
,
0101
0010
0011
0001
0011
2000
0110
3211
,
0000
1300
1100
0100
0110
0010
0011
0001
,
0011
0001
0101
0001
1001
0000
1100
1001
,
0000
1000
1010
0100
1010
0000
1010
1001
,
0000
1000
1100
0000
1001
0000
0000
0000
,
1111
0001
0100
1000
0110
1001
0110
1010
,
0110
0000
0011
0000
1010
0000
0100
1000
0110
0000
0012
0000
1010
0000
0023
0000
,
0101
0000
0031
0000
1100
0000
0001
1000
0110
0000
1010
0000
1001
0000
0101
0000
,
0011
1100
1001
1021
1231
0312
1013
2100
,
0011
0000
0100
0000
3110
0000
0001
1000
0110
0000
1100
0000
1120
0000
0231
0000
,
1312
0100
1013
0010
0101
0011
0101
1001
,
1010
0100
1010
0201
1010
2311
0101
3110
,
1010
0010
1010
0010
2011
3101
1112
2113
,
0111
0000
3110
0000
1110
1000
0101
1000
0011
0000
0101
0000
1010
0000
0101
0000
,
0110
1000
1001
0010
0101
0200
1010
1312
,
0000
0000
1013
0000
1001
0000
0001
0100
1010
0000
0110
0000
0101
0000
1010
0000
,
1010
0001
2110
3002
1010
0203
1010
1301
,
0020
0000
0100
0000
1032
0000
0213
1000
0011
0000
2300
0000
0110
3000
0011
0000
,
0020
0000
0000
0000
0000
0000
0000
0000
0000
0000
0000
0000
0000
0000
0000
0000
0000
0000
0000
0000
0000
0000
0000
0000
1000
0000
0000
0000
0000
0000
0000
0000
0000
0000
0000
0000
0030
0000
0000
0000
0000
0000
0000
0000
0000
0000
0000
0000
1102
0000
0000
0000
0000
0000
0000
0000
0000
0000
0000
0000
0000
0000
0000
0000
0000
0000
0000
0000
0000
0000
0000
0000
1020
0000
0000
0000
0000
0000
0000
0000
0000
0000
0000
0000
0003
0000
0000
0000
0000
0000
0000
0000
0000
0000
0000
0000
1101
0030
0000
0000
0000
0000
0000
0000
0000
0000
0000
0000
0000
0000
0000
0000
0000
0000
0000
0000
0000
0000
0000
0000
0000
0000
0000
0000
0000
0000
0000
0000
0000
0000
0000
0000
0000
0000
0000
0000
0000
0000
0000
0000
0000
0000
0000
0000
0000
0000
0000
0000
0000
0000
0000
0000
0000
0000
0000
0000
0000
0000
0000
0000
0000
0000
0000
0000
0000
0000
0000
0000
0000
0000
0000
0000
0000
0000
0000
0000
0000
0000
0000
0000
0000
0000
0000
0000
0000
0000
0000
0000
0000
0000
0000
0000
,
1111
0000
0000
0000
0000
0000
0000
0000
0M00
000M
0M00
00M0
000M
0M00
M000
0M00
,
00MM
00M0
00M0
00M0
00M0
00M0
00M0
00M0
M0M0
00M0
00M0
00M0
00M0
00M0
00M0
00M0
00MM
000M
000M
000M
000M
000M
000M
000M
000M
000M
000M
000M
000M
000M
000M
000M
,
000M
000M
000M
000M
000M
000M
000M
000M
000M
000M
000M
000M
000M
000M
000M
000M
000M
0000
0000
0000
0000
0000
0000
0000
0000
0000
0000
0000
0000
0000
0000
0000
,
0000
0000
0000
0000
,
0000
0000
0000
0000
0000
0000
0000
0000
0100
0001
0100
0010
0001
0100
1000
0100
,
0021
1000
0132
0000
,
0000
0000
0003
0000
;
